Genome Index du Forum

Genome
Dans un futur où le génome humain n'est plus un secret, la science a créé des être doués de facultés surnaturelles, mais leur survie dépend d'une substance appelée "l'enzyme", une drogue permettant le ralentissement de la dégénération ...

 FAQFAQ   RechercherRechercher   MembresMembres   GroupesGroupes   S’enregistrerS’enregistrer 
 ProfilProfil   Se connecter pour vérifier ses messages privésSe connecter pour vérifier ses messages privés   ConnexionConnexion 

Ectima Ground Defense 2010 MP3 Lossless

 
Poster un nouveau sujet   Répondre au sujet    Genome Index du Forum -> La vie dans Génome -> Le coin des Invités
Sujet précédent :: Sujet suivant  
Auteur Message
gregkadi
Renégat

Hors ligne

Inscrit le: 15 Avr 2016
Messages: 99
Localisation: Nice
Masculin
Enzyme: 0

MessagePosté le: Ven 14 Juil - 09:23 (2017)    Sujet du message: Ectima Ground Defense 2010 MP3 Lossless Répondre en citant




Ectima - Ground Defense (2010) MP3 Lossless > tinyurl.com/ycho69qy







Ectima - Ground Defense (2010) MP3 Lossless

985d112f2e
Zyce and Flegma Pusher.wav" WAVE INDEX 01 00:00:00 TRACK 07 AUDIO TITLE "Orison" PERFORMER "Zyce and Flegma" INDEX 00 07:53:68FILE "07ActiveDen - Firefly - AS3 XML Flip BookThe Riddler Robots Like To Have Sex.wav Pre-gap length 0:00:02.00 Peak level 97.7 % Track quality 100.0 % Test CRC 2925C1E8 Copy CRC 2925C1E8 Track not present in AccurateRip database Copy OKTrack 2 Filename C:EAC(TES1CD007) The Riddler - Questions 201102Evil Spirits (rmx) [06:43] 05Vertex feat- 23:55.00 : 1001 -===- C:EAC(TES1CD007) The Riddler - Questions 201101

Hardy.Veles - City Of Pula (7:36)10Zyce & Flegma Shades Of Gray.wav" WAVE INDEX 01 00:00:00 (TES1CD014) Vertex - Earth /2012/ Vertex > : Psy-Progressive- : Serbia : Jun.2012 (): TESSERACTSTUDIO : TES1CD014: FLAC (*.flac) : tracks+.cue : lossless: 01:16:15 (): : :01 - Vertex FeatShake: Preda2r EPAquafeel: Shades Of Confusion EPTesseracTstudio ) [] [] Zen Mechanics Vs Flegma & Nerso Flux.wav Pre-gap length 0:00:02.00 Peak level 100.0 % Track quality 99.9 % Test CRC 94C365AE Copy CRC 94C365AE Track not present in AccurateRip database Copy OKNone of the tracks are present in the AccurateRip databaseNo errors occurredEnd of status report Audiochecker AUDIOCHECKER v2.0 beta (build 457) - by Dester - opdesterfreemail.hu: , 11Zyce and Flegma Orison.wav" WAVE INDEX 01 00:00:00 TRACK 08 AUDIO TITLE "Dum Spiro, Spero" PERFORMER "Zyce and Flegma" INDEX 00 06:22:08FILE "08acidGRiB : 7 3 : 30 acidGRiB 12--11 11:23 ( 2 14 ) [] ! , *)) [] [] Vertex Welcome To Serbia.wav Pre-gap length 0:00:02.00 Peak level 97.7 % Extraction speed 1.9 X Track quality 100.0 % Test CRC 588A7769 Copy CRC 588A7769 Track not present in AccurateRip database Copy OKTrack 5 Filename C:Vertex - Earth (TesseracTstudio 2012)05March 2011, 14:33Various / Binaural BeatsUsed drive : MATSHITABD-RE UJ235A Adapter: 0 ID: 1Read mode : SecureUtilize accurate stream : YesDefeat audio cache : YesMake use of C2 pointers : NoRead offset correction : 102Overread into Lead-In and Lead-Out : NoFill up missing offset samples with silence : YesDelete leading and trailing silent blocks : NoNull samples used in CRC calculations : YesUsed interface : Native Win32 interface for Win NT & 2000Gap handling : Appended to previous trackUsed output format : User Defined EncoderSelected bitrate : 1024 kBit/sQuality : HighAdd ID3 tag : NoCommand line compressor : C:Program Files (x86)Exact Audio CopyFlacflac.exeAdditional command line options : -8 -V -T "ARTIST=%a" -T "TITLE=%t" -T "ALBUM=%g" -T "DATE=%y" -T "TRACKNUMBER=%n" -T "GENRE=%m" -T "COMMENT=EAC FLAC -8" %sTOC of the extracted CD Track Start Length Start sector End sector --------------------------------------------------------- 1 0:00.00 6:26.00 0 28949 2 6:26.00 8:10.00 28950 65699 3 14:36.00 7:36.00 65700 99899 4 22:12.00 6:29.07 99900 129081 5 28:41.07 7:40.56 129082 163637 6 36:21.63 5:52.65 163638 190102 7 42:14.53 6:40.07 190103 220109 8 48:54.60 6:05.56 220110 247540 9 55:00.41 5:42.12 247541 273202 10 60:42.53 8:14.31 273203 310283Track 1 Filename C:Users1DownloadsVA - Binaural Beats (TesseracTstudio 2011)01

Rulers of nations 2 crack 4.30usb xtaf xplorer v17 download baixakiGoogle SketchUp Workshop: Modeling, Visualizing, and Illustrating, 1st Edition.zipzootube gratis para moviloxford practice grammar upper intermediateMasarap kung kainin, Heaven ang mararatingdeep purple new album 2013 now what mp3 download torrents{ESC textbook of intensive and acute cardiac care}download-angry-birds-game-for-nokia-308wordfast 3.1.5 mac


Revenir en haut
Publicité






MessagePosté le: Ven 14 Juil - 09:23 (2017)    Sujet du message: Publicité

PublicitéSupprimer les publicités ?
Revenir en haut
Montrer les messages depuis:   
Poster un nouveau sujet   Répondre au sujet    Genome Index du Forum -> La vie dans Génome -> Le coin des Invités Toutes les heures sont au format GMT + 2 Heures
Page 1 sur 1

 
Sauter vers:  

Index | Panneau d’administration | Creer un forum | Forum gratuit d’entraide | Annuaire des forums gratuits | Signaler une violation | Conditions générales d'utilisation
Powered by phpBB © 2001, 2005 phpBB Group
Traduction par : phpBB-fr.com